<?xml version="1.0" standalone="no"?>
<!DOCTYPE svg PUBLIC "-//W3C//DTD SVG 1.1//EN" "http://www.w3.org/Graphics/SVG/1.1/DTD/svg11.dtd">
<svg xmlns="http://www.w3.org/2000/svg">
<metadata>Copyright (C) 2024 by original authors @ fontello.com</metadata>
<defs>
<font id="peepso-brands" horiz-adv-x="1000" >
<font-face font-family="peepso-brands" font-weight="400" font-stretch="normal" units-per-em="1000" ascent="850" descent="-150" />
<missing-glyph horiz-adv-x="1000" />
<glyph glyph-name="apple" unicode="&#xe800;" d="M623 325c-1 72 32 126 97 166-37 52-92 81-165 87-70 5-145-40-173-40-29 0-97 38-149 38-109-2-225-87-225-260q0-77 28-159c25-71 115-247 209-244 50 1 84 35 148 35 63 0 95-35 150-35 95 1 176 161 200 233-127 60-120 176-120 179z m-111 321c53 63 48 121 47 142-47-3-102-32-133-69-34-38-54-86-50-140 51-4 98 22 136 67z" horiz-adv-x="750" />

<glyph glyph-name="amazon" unicode="&#xe801;" d="M502 532c-95-3-331-30-331-229 0-214 270-223 359-85 12-20 69-73 88-91l111 109s-63 50-63 104v287c0 49-48 161-219 161-172 0-263-108-263-204l143-13c32 96 106 96 106 96 80 0 69-58 69-135z m0-169c0-157-164-133-164-34 0 92 99 111 164 113v-79z m266-320c-15-19-137-131-341-131s-360 140-408 198c-13 15 2 22 11 16 143-87 367-230 727-59 15 7 26-4 11-24z m78-4c-13-31-31-52-42-61-10-8-18-5-12 8s37 91 24 107c-12 17-72 9-93 7-21-2-26-4-28 0-4 11 43 31 74 34 30 4 80 2 89-11 8-10 0-53-12-84z" horiz-adv-x="875" />

<glyph glyph-name="dropbox" unicode="&#xe802;" d="M516 623l-257-165 257-164-257-165-259 166 258 165-258 163 258 165 258-165z m-259-546l258 165 258-165-258-165-258 165z m259 218l258 165-258 163 257 165 258-165-258-165 258-164-258-165-257 166z" horiz-adv-x="1031" />

<glyph glyph-name="bitbucket" unicode="&#xe803;" d="M43 788a31 31 0 0 1-31-31 52 52 0 0 1 0-6l133-805a43 43 0 0 1 41-35h637a31 31 0 0 1 31 26l132 814a31 31 0 0 1-25 36 48 48 0 0 1-6 0l-912 1z m559-582h-203l-55 287h307l-49-287z" horiz-adv-x="1000" />

<glyph glyph-name="gitlab" unicode="&#xe804;" d="M983 450l-1 4-136 355c-3 7-8 13-14 17-5 3-10 5-16 5-5 1-11 0-16-2-5-2-10-5-14-9-4-4-6-9-8-15l-92-281h-372l-92 281c-1 6-4 11-8 15-4 4-8 7-14 9-5 2-10 3-16 2-6 0-11-2-16-5-6-4-11-10-14-17l-136-355-1-4c-20-51-22-107-7-160 15-52 47-99 91-132l0 0 1-1 207-155 103-78 62-47c8-4 17-8 26-8 9 0 18 4 25 8l63 47 102 78 209 156 0 0c44 33 76 80 90 132 16 53 14 109-6 160z" horiz-adv-x="1000" />

<glyph glyph-name="github" unicode="&#xe805;" d="M324 74c0-4-4-7-10-7-7-1-11 2-11 7 0 4 4 7 10 7 6 0 11-3 11-7z m-61 9c-1-4 3-9 9-10 5-2 11 0 12 4s-3 8-9 10c-5 2-10 0-12-4z m87 3c-6-1-10-5-9-10 0-3 5-6 11-5 6 2 10 5 9 9 0 4-6 7-11 6z m128 748c-271 0-478-205-478-476 0-217 136-402 331-467 25-5 34 11 34 23 0 12-1 79-1 120 0 0-136-29-165 58 0 0-22 57-54 72 0 0-45 31 3 30 0 0 48-4 75-50 43-76 115-54 142-41 5 31 18 53 32 66-109 12-220 28-220 215 0 54 15 81 46 115-5 13-21 66 6 133 40 13 134-53 134-53 39 11 81 17 123 17s84-6 123-17c0 0 94 66 134 53 27-68 11-120 5-133 32-34 51-61 51-115 0-188-115-203-224-215 18-16 33-45 33-91 0-66-1-147-1-163 0-13 9-29 34-24 195 65 328 250 328 467 0 271-220 476-491 476z m-288-673c-3-2-2-7 1-10 3-3 8-5 10-2 3 2 2 6-1 10-3 3-8 4-10 2z m-21 16c-2-3 0-6 4-8 3-2 7-1 9 1 1 3-1 6-5 8-4 1-7 1-8-1z m63-70c-3-2-2-8 3-12 4-5 10-5 12-2 3 3 2 8-2 12-5 5-10 5-13 2z m-22 29c-3-2-3-7 0-12 3-4 8-6 11-4 3 2 3 7 0 12-3 4-8 6-11 4z" horiz-adv-x="969" />

<glyph glyph-name="linkedin" unicode="&#xe806;" d="M196-25h-181v584h181z m-91 664c-58 0-105 48-105 106a105 105 0 0 0 210 0c0-58-47-106-105-106z m770-664h-181v284c0 68-2 155-95 155-94 0-108-74-108-150v-289h-182v584h174v-79h3c24 45 83 94 172 94 183 0 217-121 217-278v-321z" horiz-adv-x="875" />

<glyph glyph-name="facebook" unicode="&#xe807;" d="M156 265v-415h227v415h169l35 191h-204v68c0 101 40 140 142 140 32 0 57-1 72-3v174c-28 7-96 15-136 15-208 0-305-99-305-311v-83h-129v-191h129z" horiz-adv-x="625" />

<glyph glyph-name="twitch" unicode="&#xe808;" d="M764 648h-75v-214h75z m-207 1h-76v-215h76z m-321 201l-188-178v-643h226v-179l188 179h151l340 321v500z m641-464l-151-143h-151l-132-125v125h-169v536h603z" horiz-adv-x="1000" />

<glyph glyph-name="discord" unicode="&#xe809;" d="M1024 714a3 3 0 0 1-1 1 948 948 0 0 1-234 73 4 4 0 0 1-3-2 659 659 0 0 1-30-60 875 875 0 0 1-262 0 605 605 0 0 1-29 60 4 4 0 0 1-4 2 945 945 0 0 1-234-73 3 3 0 0 1-2-1c-149-223-189-440-169-654a4 4 0 0 1 1-3 953 953 0 0 1 287-144 4 4 0 0 1 4 1 680 680 0 0 1 58 95 4 4 0 0 1-1 6 627 627 0 0 0-90 42 4 4 0 0 0 0 6c6 5 12 10 17 14a4 4 0 0 0 4 1c188-86 391-86 577 0a4 4 0 0 0 4-1c6-4 12-9 18-14a4 4 0 0 0-1-6 589 589 0 0 0-89-42 4 4 0 0 1-2-5 764 764 0 0 1 58-96 4 4 0 0 1 4-1 949 949 0 0 1 288 145 4 4 0 0 1 1 2c24 248-40 463-170 654z m-589-523c-57 0-104 52-104 115s46 116 104 116c58 0 104-52 103-116 0-63-46-115-103-115z m381 0c-56 0-103 52-103 115s46 116 103 116c58 0 104-52 103-116 0-63-45-115-103-115z" horiz-adv-x="1250" />

<glyph glyph-name="google" unicode="&#xe80a;" d="M953 339c0-277-189-473-469-473-268 0-484 216-484 484s216 484 484 484c131 0 241-47 325-126l-132-127c-172 166-493 41-493-231 0-169 135-306 300-306 192 0 264 138 275 209h-275v167h462c4-25 7-49 7-81z" horiz-adv-x="953" />

<glyph glyph-name="reddit" unicode="&#xe80b;" d="M729 579c-50 0-91 35-102 80l0 0c-60-8-106-60-106-121l0-1c93-3 177-29 244-71 25 19 56 31 89 31 81 0 146-66 146-146 0-59-34-109-83-132-5-170-190-306-417-306s-411 136-416 305c-50 24-84 74-84 133 0 80 65 146 146 146 34 0 64-12 89-31 67 41 150 67 242 71l0 1c0 86 66 158 150 167 9 47 51 83 102 83 57 0 104-47 104-105s-47-104-104-104z m-421-228c-41 0-76-40-79-93s34-75 74-75 72 20 74 73-29 95-70 95z m464-93c-3 53-38 94-79 94s-72-43-70-96c3-53 33-72 74-72s77 21 74 74z m-118-138c3 7-2 15-9 16-45 4-94 7-145 7s-99-3-144-7c-7-1-12-9-9-16 25-60 84-103 153-103s129 43 154 103z" horiz-adv-x="1000" />

<glyph glyph-name="foursquare" unicode="&#xe80c;" d="M631 844h-533c-74 0-98-55-98-90v-847c0-40 24-54 36-59 12-5 44-9 64 14 252 292 256 297 256 297 6 6 7 6 13 6h163c69 0 79 49 87 77l95 475c16 83-5 127-83 127z m-32-144l-22-117c-2-12-19-25-33-25h-208c-23 0-40-17-40-40v-25c0-24 17-41 40-41h177c16 0 32-18 29-35-4-18-21-105-23-115-1-10-13-26-33-26h-143c-27 0-34-4-52-25 0 0-17-22-175-211-1-2-3-2-3 0v662c0 15 13 32 32 32h428c16 0 30-15 26-34z" horiz-adv-x="719" />

<glyph glyph-name="wechat" unicode="&#xe80d;" d="M752 523c13 0 25-1 37-2-32 153-197 267-383 267-210 0-381-143-381-323 0-105 58-191 153-258l-38-114 133 67c47-10 85-19 133-19 12 0 24 0 36 1-8 25-12 52-12 80-1 166 142 301 322 301z m-204 103c29 0 48-19 48-48 0-28-19-47-48-47-29 0-57 19-57 47 0 29 29 48 57 48z m-266-95c-28 0-57 19-57 47 0 29 29 48 57 48 29 0 48-19 48-48 0-28-19-47-48-47z m818-305c0 152-152 276-323 276-181 0-323-124-323-276s142-276 323-276c37 0 76 10 114 19l104-57-29 95c77 58 134 134 134 219z m-428 48c-19 0-38 19-38 38 0 19 19 38 38 38 29 0 47-19 47-38 0-19-19-38-47-38z m209 0c-19 0-38 19-38 38 0 19 19 38 38 38 28 0 48-19 48-38 0-19-20-38-48-38z" horiz-adv-x="1125" />

<glyph glyph-name="slack" unicode="&#xe80e;" d="M184 235c0-51-42-92-92-92s-92 41-92 92c0 50 41 92 92 92h92v-92z m46 0c0 50 42 92 92 92s92-42 92-92v-230c0-51-41-93-92-93s-92 42-92 93v230z m92 369c-50 0-92 41-92 92s42 92 92 92 92-42 92-92v-92h-92z m0-47c51 0 92-41 92-92s-41-92-92-92h-230c-51 0-92 42-92 92s41 92 92 92h230z m369-92c0 51 42 92 92 92 51 0 92-41 92-92s-41-92-92-92h-92v92z m-46 0c0-50-41-92-92-92-51 0-92 42-92 92v231c0 50 41 92 92 92 51 0 92-42 92-92v-231z m-92-369c51 0 92-41 92-92 0-50-41-92-92-92-51 0-92 42-92 92v92h92z m0 47c-51 0-92 41-92 92 0 50 41 92 92 92h230c51 0 92-42 92-92 0-51-41-92-92-92h-230z" horiz-adv-x="875" />

<glyph glyph-name="tumblr" unicode="&#xe80f;" d="M605-88c-26-28-98-62-190-62-236 0-287 173-287 275v281h-93c-11 0-20 9-20 19v133c0 14 9 27 23 32 121 42 159 148 164 228 2 22 13 32 32 32h138c11 0 20-9 20-19v-225h162c11 0 19-9 19-20v-159c0-11-8-20-19-20h-163v-260c0-67 46-105 133-70 9 4 17 6 24 4 7-1 12-6 15-15l43-126c3-10 6-21-1-28z" horiz-adv-x="625" />

<glyph glyph-name="strava" unicode="&#xe810;" d="M309 850l-295-570h174l121 226 121-226h173z m294-570l-86-173-87 173h-132l219-430 218 430z" horiz-adv-x="750" />

<glyph glyph-name="instagram" unicode="&#xe811;" d="M438 575c-124 0-225-101-225-225s101-224 225-224 224 100 224 224-100 225-224 225z m0-371c-81 0-146 66-146 146s65 146 146 146 146-65 146-146-66-146-146-146z m286 380c0-29-24-53-53-53-29 0-52 24-52 53s23 52 52 52 53-23 53-52z m148-53c-3 70-19 132-70 183-52 51-114 67-184 71-72 4-289 4-361 0-70-4-132-20-183-71s-68-113-71-183c-4-72-4-289 0-361 3-70 19-132 71-184s113-67 183-70c72-5 289-5 361 0 70 3 132 19 184 70 51 52 67 114 70 184 4 72 4 288 0 361z m-93-439c-15-38-45-68-83-83-58-23-195-18-258-18s-201-5-258 18c-39 15-68 45-83 83-23 58-18 195-18 258s-5 201 18 258c15 39 44 68 83 83 57 23 194 18 258 18s200 5 258-18c38-15 68-44 83-83 23-57 18-194 18-258s5-200-18-258z" horiz-adv-x="875" />

<glyph glyph-name="x" unicode="&#xe812;" d="M760 756h138l-301-344 354-468h-277l-218 284-248-284h-138l322 368-340 444h285l196-259 227 259z m-48-730h76l-493 652h-82l499-652z" horiz-adv-x="1000" />

<glyph glyph-name="steam" unicode="&#xe813;" d="M773 503c0-66-54-119-120-119-66 0-119 54-119 119s54 120 119 120c66 0 120-54 120-120z m102 0c0-123-100-222-222-222l-213-156c-8-84-80-150-166-150-79 0-145 56-162 131l-112 45v209l190-76c29 18 63 26 101 22l139 199c1 121 101 220 223 220 122 0 222-100 222-222z m-478-362c0 68-55 122-123 122-8 0-17-1-26-3l51-20c50-20 74-76 54-126-20-50-77-74-126-54-20 8-40 16-60 24 20-39 61-65 107-65 68 0 123 54 123 122z m405 362c0 82-67 149-149 149-83 0-149-67-149-149 0-82 67-149 149-149 82 0 149 66 149 149z" horiz-adv-x="875" />

<glyph glyph-name="telegram" unicode="&#xe814;" d="M484 834c-267 0-484-216-484-484s217-484 484-484 485 216 485 484-217 484-485 484z m225-329c-7-77-39-263-55-348-7-37-20-49-33-50-28-2-49 19-77 37-42 28-66 45-108 72-47 32-16 49 11 77 7 8 131 121 133 131 1 1 1 6-2 8s-7 2-10 1q-7-1-204-135-29-20-53-19c-17 0-51 10-75 18-31 9-55 15-53 32q2 13 36 26 212 93 283 122c134 56 162 66 180 66 5 0 13-1 19-6a21 21 0 0 0 7-13 86 86 0 0 0 1-19z" horiz-adv-x="969" />
</font>
</defs>
</svg>
