<?xml version="1.0" standalone="no"?>
<!DOCTYPE svg PUBLIC "-//W3C//DTD SVG 1.1//EN" "http://www.w3.org/Graphics/SVG/1.1/DTD/svg11.dtd">
<svg xmlns="http://www.w3.org/2000/svg">
<metadata>Copyright (C) 2024 by original authors @ fontello.com</metadata>
<defs>
<font id="peepsoui" horiz-adv-x="1000" >
<font-face font-family="peepsoui" font-weight="400" font-stretch="normal" units-per-em="1000" ascent="850" descent="-150" />
<missing-glyph horiz-adv-x="1000" />
<glyph glyph-name="angle-down" unicode="&#xe800;" d="M500 135c-27 0-54 5-80 15-25 11-48 26-67 45l-341 341c-8 8-12 18-12 29 0 12 4 22 12 30 8 8 19 12 30 12 11 0 21-4 29-12l341-340c23-24 55-37 88-37 33 0 65 13 88 37l341 340c8 8 18 12 29 12 11 0 22-4 30-12 8-8 12-18 12-30 0-11-4-21-12-29l-340-341c-20-19-43-34-68-45-25-10-53-15-80-15z" horiz-adv-x="1000" />

<glyph glyph-name="angle-small-down" unicode="&#xe801;" d="M780 508c-4 4-9 7-14 9-5 2-10 3-16 3-5 0-11-1-16-3-5-2-10-5-14-9l-190-191c-4-4-9-7-14-9-5-2-10-3-16-3-5 0-11 1-16 3-5 2-10 5-14 9l-190 191c-4 4-9 7-14 9-5 2-10 3-16 3-5 0-11-1-16-3-5-2-10-5-14-9-7-8-12-18-12-29 0-11 5-22 12-30l192-191c23-23 55-37 88-37 33 0 65 14 88 37l192 191c7 8 12 19 12 30 0 11-5 21-12 29z" horiz-adv-x="1000" />

<glyph glyph-name="angle-small-up" unicode="&#xe802;" d="M750 204c-5 0-11 1-16 3-5 2-10 5-14 9l-190 192c-4 3-9 7-14 9-5 2-10 3-16 3-5 0-11-1-16-3-5-2-10-6-14-9l-190-192c-8-8-19-12-30-12-11 0-22 4-30 12-7 8-12 19-12 30 0 5 1 11 3 16 2 5 6 10 9 13l192 191c23 23 55 36 88 36 33 0 65-13 88-36l192-191c4-3 7-8 9-13 2-5 3-11 3-16 0-6-1-11-3-16-2-5-5-10-9-14-4-4-9-7-14-9-5-2-10-3-16-3z" horiz-adv-x="1000" />

<glyph glyph-name="arrow-left" unicode="&#xe803;" d="M37 263l161-163c4-4 8-7 14-9 5-2 10-3 16-3 5 0 10 1 16 3 5 2 9 5 13 9 4 4 7 9 9 14 2 5 3 10 3 16 0 5-1 11-3 16-2 5-5 9-9 13l-148 149h849c11 0 22 5 30 13 8 7 12 18 12 29 0 11-4 22-12 30-8 7-19 12-30 12h-852l151 151c8 7 12 18 12 28 0 11-4 21-12 29-4 4-8 7-13 9-6 2-11 3-16 3-6 0-11-1-16-3-6-2-10-5-14-9l-161-160c-24-24-37-56-37-89 0-33 13-65 37-88z" horiz-adv-x="1000" />

<glyph glyph-name="angle-up" unicode="&#xe804;" d="M988 171l-340 341c-20 19-43 35-68 45-25 11-53 16-80 16-27 0-54-5-80-16-25-10-48-26-67-45l-341-341c-8-8-12-18-12-29 0-11 4-22 12-30 8-8 19-12 30-12 11 0 21 4 29 12l341 341c23 23 55 36 88 36 33 0 65-13 88-36l341-341c4-4 8-7 13-9 5-2 11-3 16-3 6 0 11 1 16 3 5 2 10 5 14 9 4 4 7 9 9 14 2 5 3 10 3 16 0 5-1 11-3 16-2 5-5 9-9 13z" horiz-adv-x="1000" />

<glyph glyph-name="arrow-right" unicode="&#xe805;" d="M963 437l-161 163c-4 4-8 7-13 9-6 2-11 3-16 3-6 0-11-1-16-3-6-2-10-5-14-9-8-8-12-18-12-29 0-11 4-22 12-30l148-149h-849c-11 0-22-5-30-12-8-8-12-19-12-30 0-11 4-22 12-29 8-8 19-13 30-13h852l-151-150c-4-4-7-9-9-14-2-5-3-10-3-16 0-5 1-11 3-16 2-5 5-9 9-13 4-4 8-7 14-9 5-2 10-4 16-4 5 0 10 2 16 4 5 2 9 5 13 9l161 161c24 24 37 56 37 89 0 33-13 65-37 88z" horiz-adv-x="1000" />

<glyph glyph-name="arrow-small-left" unicode="&#xe806;" d="M792 392h-417l137 137c4 4 7 8 9 13 2 5 3 11 3 16 0 6-1 11-3 16-2 5-5 10-9 14-8 8-18 12-29 12-11 0-22-4-30-12l-178-179c-16-16-25-37-25-59 0-22 9-43 25-58l178-179c4-4 9-7 14-9 5-3 10-4 16-4 5 0 11 2 16 4 5 2 9 5 13 9 4 4 7 8 9 13 2 5 3 11 3 16 0 6-1 11-3 16-2 5-5 10-9 14l-137 136h417c11 0 21 5 29 13 8 7 12 18 12 29 0 11-4 22-12 30-8 7-18 12-29 12z" horiz-adv-x="1000" />

<glyph glyph-name="arrow-small-right" unicode="&#xe807;" d="M750 350c0 22-9 43-25 58l-178 180c-8 7-19 12-30 12-11 0-21-5-29-12-4-4-7-9-9-14-2-5-3-11-3-16 0-6 1-11 3-16 2-5 5-10 9-14l137-136h-417c-11 0-21-5-29-12-8-8-12-19-12-30 0-11 4-22 12-29 8-8 18-13 29-13h417l-137-137c-8-7-12-18-12-29 0-11 4-22 12-30 8-8 18-12 29-12 11 0 22 4 30 12l178 179c16 16 25 37 25 59z" horiz-adv-x="1000" />

<glyph glyph-name="background" unicode="&#xe808;" d="M792 850h-584c-115 0-208-93-208-208v-584c0-115 93-208 208-208h584c115 0 208 93 208 208v584c0 115-93 208-208 208z m125-608l-309-309h-174l483 483v-173l0-1z m-72 512l-750-749c-7 16-12 34-12 53v108l601 601h108c19 0 37-5 53-12v-1z m-762-296l309 309h174l-483-483v174 0z m125 309h67l-192-192v67c0 68 57 125 125 125z m-53-822l750 750c8-16 12-34 12-53v-108l-601-601h-108c-19 0-37 5-53 12z m637-12h-67l192 192v-67c0-68-57-125-125-125z" horiz-adv-x="1000" />

<glyph glyph-name="bell" unicode="&#xe809;" d="M940 281l-79 285c-24 83-74 156-144 208-69 51-154 78-241 76-86-2-170-34-236-89-67-55-114-131-133-215l-61-276c-7-30-7-62 1-92 7-31 20-59 40-83 19-25 44-44 72-58 28-13 59-20 90-20h47c9-47 35-90 72-120 37-31 84-47 132-47 48 0 95 16 132 47 37 30 63 73 72 120h35c32 0 64 7 93 21 28 15 54 35 73 61 19 26 33 55 39 87 6 31 4 64-4 95z m-440-348c-26 0-51 8-72 23-21 15-37 36-45 61h234c-8-25-24-46-45-61-21-15-46-23-72-23z m339 216c-12-15-27-27-44-36-18-9-37-13-56-13h-490c-18 0-37 4-54 12-16 8-31 20-43 35-12 14-20 31-24 50-5 18-5 37-1 55l62 276c14 66 51 126 104 169 52 43 117 68 185 70 69 1 135-20 190-60 55-41 94-98 112-164l80-284c5-19 6-39 2-58-4-18-12-36-23-52z" horiz-adv-x="1000" />

<glyph glyph-name="bars-staggered" unicode="&#xe80a;" d="M0 683c0 23 19 42 42 42h708c23 0 42-19 42-42 0-23-19-41-42-41h-708c-23 0-42 18-42 41z m750-625h-708c-23 0-42-18-42-41 0-23 19-42 42-42h708c23 0 42 19 42 42 0 23-19 41-42 41z m208 334h-708c-23 0-42-19-42-42 0-23 19-42 42-42h708c23 0 42 19 42 42 0 23-19 42-42 42z" horiz-adv-x="1000" />

<glyph glyph-name="bookmark" unicode="&#xe80b;" d="M839-150c-15 0-31 3-45 9-14 6-27 15-38 26l-256 255-256-255c-17-17-38-28-61-33-23-5-47-2-68 7-22 9-41 24-54 44-13 19-20 42-19 66v673c0 55 22 108 61 147 39 39 92 61 147 61l500 0c27 0 54-5 80-16 25-10 48-26 67-45 20-19 35-42 46-68 10-25 15-52 15-79v-673c1-24-6-47-19-66-13-20-32-35-54-44-14-6-30-9-46-9z m-589 917c-33 0-65-13-88-37-24-23-37-55-37-88v-673c0-7 2-14 6-20 4-6 9-10 16-13 6-3 13-3 20-2 7 1 13 5 18 10l286 284c8 8 18 12 29 12 11 0 22-4 30-12l285-284c5-5 11-9 18-10 7-1 14-1 21 2 6 3 11 7 15 13 4 6 6 13 6 20v673c0 33-13 65-36 88-24 24-56 37-89 37h-500z" horiz-adv-x="1000" />

<glyph glyph-name="check-circle-s" unicode="&#xe80c;" d="M500 850c-276 0-500-224-500-500 0-276 224-500 500-500 276 0 500 224 500 500 0 276-224 500-500 500z m258-438l-184-181c-33-32-75-48-117-48-41 0-83 16-115 47l-79 78c-17 16-17 42-1 59 16 16 43 16 59 0l79-77c32-31 83-31 116 1l184 181c16 16 43 15 59-1 16-16 16-43-1-59z" horiz-adv-x="1000" />

<glyph glyph-name="circle-user" unicode="&#xe80d;" d="M500 850c-276 0-500-224-500-500 0-276 224-500 500-500 276 0 500 224 500 500 0 276-224 500-500 500z m-167-882v7c0 92 75 167 167 167 92 0 167-75 167-167v-7c-51-22-108-35-167-35-59 0-116 13-167 35z m414 47c-19 119-123 210-247 210-124 0-228-91-247-210-103 76-170 198-170 335 0 230 187 417 417 417 230 0 417-187 417-417 0-137-67-259-170-335z m-247 627c-92 0-167-75-167-167 0-92 75-167 167-167 92 0 167 75 167 167 0 92-75 167-167 167z m0-250c-46 0-83 37-83 83 0 46 37 83 83 83 46 0 83-37 83-83 0-46-37-83-83-83z" horiz-adv-x="1000" />

<glyph glyph-name="cross-small" unicode="&#xe80e;" d="M750 600c-8 8-18 12-29 12-11 0-22-4-30-12l-191-191-191 191c-8 8-18 12-29 12-12 0-22-4-30-12-8-8-12-18-12-29 0-11 4-22 12-30l191-191-191-191c-8-8-12-18-12-29 0-12 4-22 12-30 8-8 18-12 30-12 11 0 21 4 29 12l191 191 191-191c8-8 19-12 30-12 11 0 21 4 29 12 8 8 12 18 12 30 0 11-4 21-12 29l-191 191 191 191c8 8 12 19 12 30 0 11-4 21-12 29z" horiz-adv-x="1000" />

<glyph glyph-name="comment-medical" unicode="&#xe80f;" d="M536 849c-145 10-287-43-389-145-103-103-156-245-146-390 19-264 253-464 545-464h246c122 0 208 100 208 244v242c0 270-204 495-464 513z m381-755c0-96-50-161-125-161h-246c-252 0-446 163-462 387-8 121 36 239 121 325 79 78 185 122 296 122 9 0 19-1 29-1 217-15 387-204 387-430v-242 0z m-209 256c0-23-18-42-41-42h-125v-125c0-23-19-41-42-41-23 0-42 18-42 41v125h-125c-23 0-41 19-41 42 0 23 18 42 41 42h125v125c0 23 19 41 42 41 23 0 42-18 42-41v-125h125c23 0 41-19 41-42z" horiz-adv-x="1000" />

<glyph glyph-name="cross" unicode="&#xe810;" d="M988 838c-8 8-19 12-30 12-11 0-21-4-29-12l-429-429-429 429c-8 8-18 12-29 12-11 0-22-4-30-12-8-8-12-19-12-30 0-11 4-21 12-29l429-429-429-429c-8-8-12-18-12-29 0-11 4-22 12-30 8-8 19-12 30-12 11 0 21 4 29 12l429 429 429-429c8-8 18-12 29-12 11 0 22 4 30 12 8 8 12 19 12 30 0 11-4 21-12 29l-429 429 429 429c8 8 12 18 12 29 0 11-4 22-12 30z" horiz-adv-x="1000" />

<glyph glyph-name="earth-americas" unicode="&#xe811;" d="M500 850c-276 0-500-224-500-500 0-276 224-500 500-500 276 0 500 224 500 500 0 276-224 500-500 500z m0-917c-230 0-417 187-417 417 0 62 14 121 39 175l69-73c11-12 26-19 42-19h82c12 0 23-4 32-13l15-15c8-9 13-20 13-31v-41c0-16 6-31 18-42l49-50c11-10 16-24 16-39v-98c0-25 21-46 46-46h9c17 0 34 11 41 27l93 202c11 24 3 53-20 67l-106 67c-14 8-29 12-45 12h-60c-13 0-25 6-34 15l-25 24c-13 13-13 34 0 47l22 22c10 11 26 13 38 7l37-19c15-7 33-4 45 8l0 0c13 12 15 32 6 48l-35 58c-7 12-7 27 1 39 12 19 32 50 55 84 136-8 255-83 325-191l-66-38c-21-12-31-36-25-59l26-104c4-15 14-28 28-35l98-49c-29-201-202-357-412-357h0z" horiz-adv-x="1000" />

<glyph glyph-name="comment-dots" unicode="&#xe812;" d="M563 350c0-34-28-62-63-62-34 0-62 28-62 62 0 35 28 63 62 63 35 0 63-28 63-63z m145 63c-34 0-62-28-62-63 0-34 28-62 62-62 35 0 63 28 63 62 0 35-28 63-63 63z m-416 0c-35 0-63-28-63-63 0-34 28-62 63-62 34 0 62 28 62 62 0 35-28 63-62 63z m708-77v-278c0-115-93-208-208-208h-247c-292 0-525 200-544 464-10 145 43 287 145 389 102 103 244 156 389 146 261-18 465-243 465-513z m-83 0c0 226-170 415-388 430-9 0-19 1-28 1-111 0-217-44-296-123-85-85-129-203-121-324 16-224 210-387 461-387h247c69 0 125 56 125 125v278l0 0z" horiz-adv-x="1000" />

<glyph glyph-name="envelope" unicode="&#xe813;" d="M792 808h-584c-55 0-108-22-147-61-39-39-61-92-61-147l0-500c0-55 22-108 61-147 39-39 92-61 147-61h584c55 0 108 22 147 61 39 39 61 92 61 147v500c0 55-22 108-61 147-39 39-92 61-147 61z m-584-83h584c25 0 49-8 70-22 20-14 36-33 46-57l-320-319c-23-23-55-36-88-36-33 0-65 13-88 36l-319 319c9 24 25 43 45 57 21 14 45 22 70 22z m584-750h-584c-33 0-65 13-88 37-23 23-37 55-37 88v438l270-270c39-39 92-61 147-61 55 0 108 22 147 61l270 270v-438c0-33-13-65-37-88-23-24-55-37-88-37z" horiz-adv-x="1000" />

<glyph glyph-name="gif-square" unicode="&#xe814;" d="M792 767h-584c-114 0-208-94-208-209v-416c0-115 94-209 208-209h584c115 0 208 94 208 209v416c0 115-93 209-208 209z m125-625c0-69-56-125-125-125h-584c-69 0-125 56-125 125v416c0 69 56 125 125 125h584c69 0 125-56 125-125v-416z m-375 375v-334c0-23-19-41-42-41-23 0-42 18-42 41v334c0 23 19 41 42 41 23 0 42-18 42-41z m291 0c0-23-18-42-41-42h-84c-23 0-41-19-41-42v-41h83c23 0 42-19 42-42 0-23-19-42-42-42h-83v-125c0-23-19-41-42-41-23 0-42 18-42 41v250c0 69 56 125 125 125h84c23 0 41-18 41-41z m-583-84v-166c0-23 19-42 42-42 23 0 41 19 41 42-23 0-41 18-41 41 0 23 18 42 41 42 55 0 84-43 84-83 0-69-56-125-125-125-69 0-125 56-125 125v166c0 69 56 125 125 125 69 0 125-56 125-125 0-23-19-41-42-41-23 0-42 18-42 41 0 23-18 42-41 42-23 0-42-19-42-42z" horiz-adv-x="1000" />

<glyph glyph-name="eye" unicode="&#xe815;" d="M970 458c-65 105-212 281-470 281-258 0-405-176-470-281-20-33-30-70-30-108 0-38 10-75 30-107 65-106 212-282 470-282 258 0 405 176 470 282 20 32 30 69 30 107 0 38-10 75-30 108z m-71-172c-56-90-181-242-399-242-217 0-343 152-399 242-11 19-18 41-18 64 0 23 7 45 18 64 56 90 182 242 399 242 218 0 343-152 399-242 12-19 18-41 18-64 0-23-6-45-18-64z m-399 272c-41 0-81-12-116-35-34-23-61-55-76-93-16-38-20-80-12-121 8-40 28-77 57-106 29-29 66-49 106-57 41-8 83-4 121 12 38 15 70 42 93 76 23 35 35 75 35 116 0 55-22 108-61 147-39 39-92 61-147 61z m0-333c-25 0-49 7-69 21-21 14-37 33-46 56-10 23-12 48-8 72 5 25 17 47 35 64 17 18 39 30 64 35 24 4 49 2 72-7 23-10 42-26 56-47 14-20 21-44 21-69 0-33-13-65-37-88-23-24-55-37-88-37z" horiz-adv-x="1000" />

<glyph glyph-name="grin-alt" unicode="&#xe816;" d="M292 454c1 137 123 137 125 0-2-137-124-137-125 0z m354-104c82 1 82 207 0 208-82-1-82-207 0-208z m354 0c0-133-53-260-147-353-93-94-220-147-353-147-663 25-662 975 0 1000 133 0 260-53 353-147 94-93 147-220 147-353z m-83 0c0 111-44 216-122 295-79 78-184 122-295 122-552-21-552-813 0-834 111 0 216 44 295 123 78 78 122 184 122 294z m-217-84c-64-24-132-38-200-41-68 3-136 17-200 41-8 1-16 1-24-2-8-3-14-9-19-15-5-7-7-15-7-23-1-9 2-17 6-24 25-43 60-79 103-104 43-25 91-39 141-40 50 1 98 15 141 40 43 25 78 61 102 104 5 7 7 15 7 24 0 8-3 16-7 23-5 7-12 12-19 15-8 3-16 3-24 2z" horiz-adv-x="1000" />

<glyph glyph-name="loading" unicode="&#xe817;" d="M542 808v-83c0-11-5-22-12-29-8-8-19-13-30-13-11 0-22 5-29 13-8 7-13 18-13 29v83c0 11 5 22 13 30 7 8 18 12 29 12 11 0 22-4 30-12 7-8 12-19 12-30z m-42-791c-11 0-22-5-29-12-8-8-13-19-13-30v-83c0-11 5-22 13-30 7-8 18-12 29-12 11 0 22 4 30 12 7 8 12 19 12 30v83c0 11-5 22-12 30-8 7-19 12-30 12z m-333 333c0 11-5 22-12 30-8 7-19 12-30 12h-83c-11 0-22-5-30-12-8-8-12-19-12-30 0-11 4-22 12-29 8-8 19-13 30-13h83c11 0 22 5 30 13 7 7 12 18 12 29z m791 42h-83c-11 0-22-5-29-12-8-8-13-19-13-30 0-11 5-22 13-29 7-8 18-13 29-13h83c11 0 22 5 30 13 8 7 12 18 12 29 0 11-4 22-12 30-8 7-19 12-30 12z m-207 391c-5 2-10 4-16 5-5 1-11 0-16-1-5-2-10-4-14-7-5-4-8-8-11-13l-42-72c-5-9-7-21-4-31 3-11 10-20 19-26 7-3 14-5 21-5 8 0 15 2 21 5 6 4 12 9 15 16l42 72c5 9 7 21 4 31-3 11-10 20-19 26z m-418-721c-10 5-21 7-32 4-10-3-20-10-25-19l-42-73c-5-9-7-21-4-31 3-11 10-20 19-26 7-3 14-5 21-5 8 0 15 2 21 5 6 4 12 9 15 16l42 72c6 9 7 21 4 31-3 11-10 20-19 26z m-136 512l-73 42c-9 5-20 6-31 3-10-3-19-10-24-19-6-9-7-21-5-31 3-11 10-20 19-25l72-42c9-5 21-6 31-3 10 3 19 10 25 19 5 9 7 20 4 31-3 10-9 19-18 25z m720-418l-72 42c-9 5-20 6-31 3-10-3-19-10-25-19-5-9-7-20-4-31 3-10 9-20 19-25l72-42c6-4 13-6 21-5 9 0 18 3 25 8 7 6 12 14 15 22 2 9 2 19-2 27-4 9-10 16-18 20z m-611 611c-5 10-15 16-25 19-11 3-22 1-31-4-9-6-16-15-19-25-3-10-2-22 3-31l42-72c3-7 9-12 15-16 6-3 14-5 21-5 7 0 14 2 21 5 9 6 16 15 19 26 3 10 1 22-4 31l-42 72z m418-720c-6 9-15 15-25 18-11 3-22 1-31-4-9-6-16-14-19-25-3-10-2-21 3-31l42-72c5-9 14-16 25-19 10-2 22-1 31 5 9 5 16 14 19 24 3 11 2 22-3 31l-42 73z m101 450c7 0 14 2 20 5l72 42c10 6 16 15 19 25 3 11 1 22-4 31-6 10-15 16-25 19-10 3-22 2-31-3l-72-42c-8-4-14-11-18-20-3-8-4-18-2-26 3-9 8-17 15-23 7-5 16-8 26-8z m-670-299l-72-42c-8-4-15-11-18-20-4-8-4-18-2-26 3-9 8-17 15-23 7-5 16-8 25-8 8 0 15 2 21 5l72 42c10 6 16 15 19 25 3 11 1 22-4 31-6 10-15 16-25 19-11 3-22 2-31-3z" horiz-adv-x="1000" />

<glyph glyph-name="low-vision" unicode="&#xe818;" d="M618 55c24-24 11-65-22-71-1 0-1 0-1 0-14-2-28 2-37 12l-466 465c-15 15-16 39-3 56 0 0 0 0 0 0 16 20 45 22 63 4l466-466z m-596 359c-6-12-11-22-15-30-10-22-10-46 0-68 2-4 4-8 7-13l246-246c33-33 73-57 118-67 4-1 7-2 11-3 22-5 38 22 21 38l-388 389z m966-493c16-16 16-43 0-59-8-8-19-12-30-12-10 0-21 4-29 12l-917 917c-16 16-16 43 0 59 17 16 43 16 59 0l178-178c77 43 161 65 251 65 258 0 405-177 470-282 40-66 40-149 0-215-27-43-70-103-133-156l151-151z m-677 677l74-74c81 53 191 44 262-27 72-71 80-181 27-262l104-104c57 47 97 102 121 141 24 39 24 88 0 128-56 90-181 242-399 242-67 0-131-15-189-44z m302-302c22 47 14 104-25 142-38 39-95 47-142 25l167-167 0 0z" horiz-adv-x="1000" />

<glyph glyph-name="key" unicode="&#xe819;" d="M313-150c-76 0-149 27-205 77-57 49-94 118-105 193-10 74 7 150 48 214 42 63 104 109 177 129 53 15 109 16 162 2l329 330c18 17 38 31 61 41 23 9 48 14 73 14 39 0 76-16 104-43 27-28 43-65 43-104 0-25-5-50-14-73-10-23-24-43-41-61l-28-28c-16-15-37-24-59-24h-66v-42c0-22-9-43-25-59-15-16-37-24-59-24h-41v-66c0-11-2-22-7-32-4-10-10-20-18-27l-27-27c14-53 13-109-2-162-17-60-51-114-99-154-48-40-106-66-169-72-10-1-21-2-32-2z m0 542c-43 0-85-12-121-35-36-22-66-54-85-92-19-38-27-81-23-124 4-42 20-83 46-117 26-34 60-60 100-75 40-16 83-20 125-12 42 8 81 28 112 56 32 29 55 66 66 107 13 46 12 94-4 138-3 7-3 15-1 23 1 8 5 15 11 20l44 45v66c0 22 9 43 25 59 15 15 37 24 59 24h41v42c0 22 9 43 25 59 15 15 37 24 59 24h66l28 28c10 10 17 21 23 34 5 13 8 27 8 41 0 17-7 33-19 45-12 12-28 19-45 19-14 0-28-3-41-8-13-6-24-13-34-23l-347-347c-6-6-13-10-20-11-8-2-16-2-23 1-24 8-50 13-75 13h0z m-105-292c0-8 3-16 7-23 5-7 11-12 19-15 8-4 16-4 24-3 8 2 16 6 22 12 5 5 9 13 11 21 2 8 1 16-2 24-4 8-9 14-16 19-7 4-15 7-23 7-11 0-22-5-29-12-8-8-13-19-13-30z" horiz-adv-x="1000" />

<glyph glyph-name="marker" unicode="&#xe81a;" d="M500 600c-33 0-65-10-93-28-27-18-48-44-61-75-13-30-16-64-9-96 6-32 22-62 45-85 24-24 53-40 86-46 32-7 65-3 96 9 30 13 56 34 75 62 18 27 28 59 28 92 0 45-18 87-49 118-31 31-74 49-118 49z m0-250c-16 0-33 5-46 14-14 9-25 22-31 37-6 16-8 32-5 49 4 16 11 31 23 42 12 12 27 20 43 23 16 3 33 2 48-5 15-6 28-17 37-30 10-14 14-30 14-47 0-22-8-43-24-59-16-15-37-24-59-24z m0-500c-35 0-70 8-101 24-31 16-58 39-79 68-158 219-239 383-239 489 0 111 44 218 123 296 78 79 185 123 296 123 111 0 218-44 296-123 79-78 123-185 123-296 0-106-81-270-239-489-21-29-48-52-79-68-31-16-66-24-101-24z m0 909c-87 0-170-35-232-96-61-62-96-145-96-232 0-84 79-239 222-436 12-17 28-30 47-40 18-9 38-14 59-14 21 0 41 5 60 14 18 10 34 23 46 40 143 197 222 352 222 436 0 87-35 170-96 232-62 61-145 96-232 96z" horiz-adv-x="1000" />

<glyph glyph-name="music-alt" unicode="&#xe81b;" d="M940 812c-19 15-41 27-65 33-23 6-48 7-72 2l-383-72c-48-9-91-34-122-71-31-38-48-85-48-133v-411c-25 15-54 23-83 23-33 0-65-9-93-28-27-18-49-44-61-75-13-30-16-63-10-96 7-32 23-62 46-85 23-24 53-39 85-46 33-6 66-3 96 10 31 12 57 34 75 61 19 27 28 60 28 93v380c0 19 7 38 20 53 12 15 29 25 48 29l466 87c6 1 13 1 19 0 6-2 11-5 16-9 4-4 8-9 11-14 2-6 4-12 4-18v-240c-25 15-54 23-84 23-33 0-65-9-92-28-28-18-49-44-62-75-12-30-16-63-9-96 6-32 22-62 46-85 23-23 53-39 85-46 32-6 66-3 96 10 31 12 57 34 75 61 18 28 28 60 28 93v541c0 25-5 49-16 71-10 22-25 42-44 58z m-773-879c-17 0-33 5-47 14-13 9-24 22-30 38-7 15-8 32-5 48 3 16 11 31 23 43 11 11 26 19 42 22 17 4 33 2 49-4 15-7 28-17 37-31 9-14 14-30 14-46 0-22-9-44-24-59-16-16-37-25-59-25z m685 715l-466-87c-19-4-36-10-53-20v30c0 29 11 57 29 79 19 23 45 38 73 44l383 71c12 3 24 2 36-1 12-3 23-9 33-17 9-7 17-17 22-28 5-11 8-23 8-36v-41c-21 8-43 10-65 6z m-19-590c-16 0-32 5-46 14-14 10-24 23-31 38-6 15-8 32-4 48 3 16 11 31 22 43 12 11 27 19 43 22 16 4 33 2 48-4 16-7 29-17 38-31 9-14 14-30 14-46 0-22-9-44-25-59-15-16-37-25-59-25z" horiz-adv-x="1000" />

<glyph glyph-name="pen-field" unicode="&#xe81c;" d="M948 446c34-38 52-87 52-138v-208c0-115-93-208-208-208h-584c-114 0-208 93-208 208v208c0 115 94 209 208 209h167c23 0 42-19 42-42 0-23-19-42-42-42h-167c-69 0-125-56-125-125v-208c0-69 56-125 125-125h584c69 0 125 56 125 125v208c0 31-11 60-32 83-15 17-13 44 4 59 17 15 44 13 59-4z m-740-242c0-34 28-62 63-62 34 0 62 28 62 62 0 35-28 63-62 63-35 0-63-28-63-63z m271-62c35 0 63 28 63 62 0 35-28 63-63 63-34 0-62-28-62-63 0-34 28-62 62-62z m21 250v66c0 44 17 86 49 118l238 237c48 49 128 49 176 0 24-23 37-55 37-88 0-33-13-65-37-88l-237-238c-32-32-74-49-118-49h-66c-23 0-42 19-42 42v0z m83 41h25c22 0 43 9 59 25l238 238c7 7 12 18 12 29 0 11-5 22-12 30-17 16-43 16-59 0l-238-238c-16-16-25-37-25-59v-25z" horiz-adv-x="1000" />

<glyph glyph-name="picture" unicode="&#xe81d;" d="M792 850h-584c-55 0-108-22-147-61-39-39-61-92-61-147l0-584c0-55 22-108 61-147 39-39 92-61 147-61h584c55 0 108 22 147 61 39 39 61 92 61 147v584c0 55-22 108-61 147-39 39-92 61-147 61z m-584-83h584c33 0 65-13 88-37 24-23 37-55 37-88v-584c0-18-5-36-13-53l-382 382c-19 19-42 34-67 45-25 10-53 16-80 16-27 0-54-6-80-16-25-11-48-26-67-45l-145-145v400c0 33 14 65 37 88 23 24 55 37 88 37z m0-834c-33 0-65 13-88 37-23 23-37 55-37 88v66l204 204c11 11 25 21 40 27 15 6 32 9 48 9 16 0 33-3 48-9 15-6 29-16 40-27l382-382c-16-8-35-13-53-13h-584z m459 480c29 0 57 8 81 24 24 16 42 39 53 66 11 26 14 56 9 84-6 28-20 54-40 75-21 20-47 34-75 39-28 6-57 3-84-8-27-11-50-30-66-54-16-24-24-52-24-81 0-38 15-75 43-103 27-27 64-42 103-42z m0 208c12 0 24-4 34-11 11-7 19-16 23-28 5-11 6-24 4-36-2-12-8-23-17-32-9-9-20-15-32-17-12-2-25-1-36 4-12 4-21 12-28 23-7 10-11 22-11 34 0 17 7 33 19 45 11 11 27 18 44 18z" horiz-adv-x="1000" />

<glyph glyph-name="play-alt" unicode="&#xe81e;" d="M792-150h-584c-55 0-108 22-147 61-39 39-61 92-61 147l0 584c0 55 22 108 61 147 39 39 92 61 147 61l584 0c55 0 108-22 147-61 39-39 61-92 61-147v-584c0-55-22-108-61-147-39-39-92-61-147-61z m-584 917c-33 0-65-13-88-37-23-23-37-55-37-88v-584c0-33 14-65 37-88 23-24 55-37 88-37h584c33 0 65 13 88 37 24 23 37 55 37 88v584c0 33-13 65-37 88-23 24-55 37-88 37h-584z m181-625c-17 0-34 4-49 13-15 8-27 21-36 36-8 14-13 31-13 48v222c0 17 5 34 13 49 9 14 21 27 36 35 15 9 31 13 49 13 17 0 33-4 48-13l220-109c15-9 28-21 37-36 9-14 14-31 14-49 0-17-4-34-13-49-8-15-21-28-36-36l-224-112c-14-8-30-13-46-12z m-1 333c-2 0-4-1-6-2-2-1-4-3-5-5-2-2-2-5-2-7v-222c0-2 0-5 2-7 1-2 3-4 5-5 2-1 4-2 7-2 2 0 4 1 7 2l224 112c1 1 3 3 3 5 1 2 2 4 2 6 0 3-1 5-2 7-2 2-3 4-5 5l-220 110c-3 2-6 3-10 3z" horiz-adv-x="1000" />

<glyph glyph-name="power" unicode="&#xe81f;" d="M625 690c0-9 3-17 7-24 5-6 12-12 19-15 69-30 127-80 166-143 40-63 60-137 58-212-2-99-43-194-114-263-72-69-168-107-267-106-99 2-194 43-263 114-70 72-108 168-106 267 0 73 21 144 61 205 40 61 96 109 163 138 7 3 14 9 19 15 4 7 7 15 7 24 0 7-2 13-5 19-3 6-8 11-13 15-6 4-12 6-19 7-7 1-14 0-20-3-97-41-176-115-225-209-48-94-63-201-42-304 22-103 78-196 160-263 82-66 184-103 289-103 106 0 208 37 289 103 82 67 138 160 160 263 21 103 6 210-42 304-49 94-128 168-225 209-6 3-13 4-20 3-6 0-13-3-19-7-5-3-10-9-13-15-3-6-5-12-5-19z m-83 118c0 23-19 42-42 42-23 0-42-19-42-42v-250c0-23 19-41 42-41 23 0 42 18 42 41v250z" horiz-adv-x="1000" />

<glyph glyph-name="rectangle-list" unicode="&#xe820;" d="M792 808h-584c-114 0-208-93-208-208v-500c0-115 94-208 208-208h584c115 0 208 93 208 208v500c0 115-93 208-208 208z m125-708c0-69-56-125-125-125h-584c-69 0-125 56-125 125v500c0 69 56 125 125 125h584c69 0 125-56 125-125v-500z m-125 458c0-23-19-41-42-41h-292c-23 0-41 18-41 41 0 23 18 42 41 42h292c23 0 42-19 42-42z m-459 0c0-34-28-62-62-62-35 0-63 28-63 62 0 35 28 63 63 63 34 0 62-28 62-63z m459-208c0-23-19-42-42-42h-292c-23 0-41 19-41 42 0 23 18 42 41 42h292c23 0 42-19 42-42z m-459 0c0-34-28-62-62-62-35 0-63 28-63 62 0 35 28 63 63 63 34 0 62-28 62-63z m459-208c0-23-19-42-42-42h-292c-23 0-41 19-41 42 0 23 18 41 41 41h292c23 0 42-18 42-41z m-459 0c0-35-28-63-62-63-35 0-63 28-63 63 0 34 28 62 63 62 34 0 62-28 62-62z" horiz-adv-x="1000" />

<glyph glyph-name="settings-sliders" unicode="&#xe821;" d="M42 652h114c9-33 28-62 55-83 27-20 61-31 95-31 34 0 67 11 94 31 27 21 47 50 56 83h502c11 0 22 5 30 12 8 8 12 19 12 30 0 11-4 21-12 29-8 8-19 12-30 12h-502c-9 33-29 62-56 83-27 21-60 32-94 32-34 0-68-11-95-32-27-21-46-50-55-83h-114c-11 0-22-4-30-12-8-8-12-18-12-29 0-11 4-22 12-30 8-7 19-12 30-12z m264 115c14 0 28-5 40-13 12-8 21-19 27-32 5-14 7-28 4-42-3-15-10-28-20-38-10-10-23-17-37-20-14-3-29-1-42 4-14 6-25 15-33 27-8 12-12 26-12 41 0 19 7 38 21 51 14 14 32 22 52 22z m652-375h-114c-9 33-28 62-55 82-27 21-60 32-94 32-35 0-68-11-95-32-27-20-46-49-55-82h-503c-11 0-22-5-30-12-8-8-12-19-12-30 0-11 4-22 12-29 8-8 19-13 30-13h503c9-33 28-62 55-82 27-21 60-32 95-32 34 0 67 11 94 32 27 20 46 49 55 82h114c11 0 22 5 30 13 8 7 12 18 12 29 0 11-4 22-12 30-8 7-19 12-30 12z m-263-115c-15 0-29 4-41 12-12 8-21 20-27 33-5 13-7 28-4 42 3 14 10 27 20 38 10 10 23 17 37 20 14 2 29 1 42-5 14-5 25-14 33-26 8-12 12-27 12-41 0-19-7-38-21-51-14-14-32-22-51-22z m263-229h-502c-9 33-29 62-56 83-27 20-60 32-94 32-34 0-68-12-95-32-27-21-46-50-55-83h-114c-11 0-22-4-30-12-8-8-12-19-12-30 0-11 4-21 12-29 8-8 19-12 30-12h114c9-33 28-62 55-83 27-21 61-32 95-32 34 0 67 11 94 32 27 21 47 50 56 83h502c11 0 22 4 30 12 8 8 12 18 12 29 0 11-4 22-12 30-8 8-19 12-30 12z m-652-115c-15 0-29 5-41 13-12 8-21 19-27 32-5 14-7 28-4 43 3 14 10 27 20 37 10 10 23 17 37 20 15 3 29 1 42-4 14-6 25-15 33-27 8-12 13-26 13-41-1-19-8-38-22-51-14-14-32-22-51-22z" horiz-adv-x="1000" />

<glyph glyph-name="settings" unicode="&#xe822;" d="M500 517c-33 0-65-10-93-28-27-19-48-45-61-75-13-31-16-64-9-96 6-33 22-62 45-86 24-23 53-39 86-45 32-7 65-4 96 9 30 13 56 34 75 61 18 28 28 60 28 93 0 44-18 87-49 118-31 31-74 49-118 49z m0-250c-16 0-33 5-46 14-14 9-25 22-31 37-6 15-8 32-5 48 4 16 11 31 23 43 12 12 27 20 43 23 16 3 33 1 48-5 15-6 28-17 37-31 9-13 14-29 14-46 0-22-8-43-24-59-16-16-37-24-59-24z m387 4l-18 11c8 45 8 91 0 137l18 10c15 9 27 19 37 32 10 13 17 28 22 44 4 16 5 33 3 49-2 16-8 32-16 46-8 14-19 27-32 37-13 10-28 17-44 21-16 5-32 6-48 4-17-3-32-8-47-16l-18-11c-35 30-76 53-119 69v21c0 33-13 65-37 88-23 24-55 37-88 37-33 0-65-13-88-37-24-23-37-55-37-88v-21c-43-16-84-39-119-69l-18 11c-29 16-63 21-95 12-32-8-59-29-76-58-17-29-21-63-13-95 9-32 30-59 59-76l18-10c-8-46-8-92 0-138l-18-10c-29-17-50-44-59-76-8-32-4-66 13-95 17-29 44-50 76-58 32-9 66-4 95 12l18 11c35-30 76-53 119-69v-21c0-33 13-65 37-88 23-24 55-37 88-37 33 0 65 13 88 37 24 23 37 55 37 88v21c43 16 84 39 119 69l18-11c29-16 63-21 95-12 32 8 60 29 76 58 17 29 21 63 13 95-9 32-30 59-59 76l0 0z m-106 157c14-51 14-105 0-156-2-9-2-18 2-27 3-8 9-16 17-20l46-26c9-6 16-15 19-26 3-10 1-22-4-31-6-10-15-17-25-20-11-3-22-1-32 4l-45 27c-8 4-18 6-27 5-9-1-17-6-24-12-37-38-84-65-135-78-9-3-17-8-23-15-5-8-8-16-8-26v-52c0-11-5-22-13-30-7-7-18-12-29-12-11 0-22 5-29 12-8 8-13 19-13 30v52c0 9-3 18-8 26-6 7-14 12-23 15-51 13-98 40-135 78-7 6-15 11-24 12-9 1-19-1-27-5l-45-26c-5-3-10-5-15-6-6 0-11 0-17 1-5 2-10 4-14 7-5 4-8 8-11 13-3 5-5 10-5 15-1 6-1 11 1 16 1 6 4 11 7 15 4 4 8 8 13 11l45 26c8 5 14 12 17 20 4 9 4 18 2 27-14 51-14 105 0 156 2 9 2 19-2 27-3 9-9 16-17 20l-46 26c-9 6-16 15-19 26-3 10-1 22 4 31 6 10 15 17 26 20 10 3 22 1 31-4l45-26c8-5 18-7 27-6 9 1 17 6 24 12 37 38 84 65 135 78 9 3 17 8 23 15 5 8 8 17 8 26v52c0 11 5 22 13 30 7 7 18 12 29 12 11 0 22-5 30-12 7-8 12-19 12-30v-52c0-9 3-18 8-26 6-7 14-12 23-14 51-14 98-41 135-79 7-6 15-11 24-12 9-1 19 1 27 5l45 26c5 3 10 5 15 6 6 1 11 0 17-1 5-2 10-4 14-7 5-4 8-8 11-13 3-4 5-10 5-15 1-6 1-11-1-16-1-6-4-11-7-15-3-4-8-8-12-11l-46-26c-8-4-14-12-17-20-4-9-4-18-2-27v0z" horiz-adv-x="1000" />

<glyph glyph-name="share" unicode="&#xe823;" d="M806 239c-32 0-63-8-91-22-28-15-52-36-69-62l-272 122c20 47 20 99 1 145l270 123c27-38 66-65 111-77 45-12 93-7 134 13 42 21 75 55 93 98 19 43 21 91 7 135-13 44-43 82-82 107-39 24-86 34-132 27-46-7-88-31-118-66-30-35-47-80-47-126 0-11 1-22 3-33l-288-131c-27 26-62 43-99 50-38 6-76 2-111-13-34-15-64-40-85-72-21-32-32-69-32-107 0-37 11-74 32-106 20-32 50-57 85-72 34-15 73-20 110-14 37 7 72 24 100 50l288-131c-2-11-3-22-3-32 0-39 12-77 33-109 21-32 52-57 87-71 36-15 75-19 113-11 37 7 72 26 99 53 27 27 46 62 53 100 8 37 4 76-11 112-14 35-39 66-71 87-32 22-70 33-108 33z m0 528c22 0 43-7 61-19 19-12 33-30 41-50 9-20 11-43 7-64-5-22-15-41-31-57-15-16-35-26-57-30-21-5-44-2-64 6-20 8-38 23-50 41-12 18-18 40-18 62 0 29 11 57 32 78 21 21 49 33 79 33z m-611-528c-22 0-44 6-62 19-19 12-33 29-41 49-9 21-11 43-7 65 5 21 15 41 31 57 15 15 35 26 57 30 21 4 44 2 64-6 20-9 38-23 50-41 12-18 19-40 19-62 0-29-12-58-33-78-21-21-49-33-78-33z m611-306c-22 0-44 7-62 19-18 12-33 30-41 50-8 20-11 43-6 64 4 22 14 42 30 57 16 16 35 26 57 30 21 5 44 3 64-6 20-8 38-22 50-41 12-18 19-40 19-61 0-30-12-58-33-79-21-21-49-33-78-33z" horiz-adv-x="1000" />

<glyph glyph-name="social-network" unicode="&#xe824;" d="M949 528c-20 23-44 41-71 53-27 13-56 19-86 19h-166l14 85c4 30-2 61-17 87-16 26-41 45-70 54-29 10-60 8-88-4-28-12-50-33-64-60l-80-162h-113c-55 0-108-22-147-61-39-39-61-92-61-147l0-209c0-55 22-108 61-147 39-39 92-61 147-61h555c50 0 98 18 136 51 38 33 63 79 70 128l29 209c4 29 2 59-6 88-9 28-23 55-43 77z m-866-345v209c0 33 14 65 37 88 23 24 55 37 88 37h84v-459h-84c-33 0-65 14-88 37-23 23-37 55-37 88z m833 191l-30-208c-4-30-19-57-42-77-22-20-51-30-81-31h-388v470c4 3 7 7 10 12l91 185c3 6 8 11 14 15 6 4 13 7 20 7 7 1 14 0 20-2 7-2 13-6 18-12 4-4 7-10 8-16 2-6 2-12 1-19l-22-133c-1-6 0-12 1-18 2-6 5-11 9-16 4-4 8-8 14-10 5-3 11-4 17-4h216c18 0 35-4 52-12 16-7 30-18 42-31 12-14 21-30 26-47 5-17 6-35 4-53z" horiz-adv-x="1000" />

<glyph glyph-name="eye-crossed" unicode="&#xe825;" d="M970 458c-38 61-85 116-141 162l117 117c7 8 12 19 12 29-1 11-5 22-13 30-7 7-18 12-29 12-11 0-21-4-29-12l-127-127c-79 47-168 71-260 70-258 0-405-176-470-281-20-33-30-70-30-108 0-38 10-75 30-107 38-62 85-117 141-163l-117-117c-4-4-7-9-9-14-2-5-3-10-3-16-1-5 1-11 3-16 2-5 5-10 9-14 4-3 8-7 13-9 6-2 11-3 17-3 5 0 11 1 16 4 5 2 9 5 13 9l127 127c79-47 169-71 260-70 258 0 405 176 470 282 20 32 30 69 30 107 0 38-10 75-30 108z m-869-172c-11 19-18 41-18 64 0 23 7 45 18 64 56 90 182 242 399 242 69 0 137-16 199-48l-84-84c-40 26-88 38-136 33-48-4-92-26-126-60-34-33-55-78-60-126-5-48 7-96 33-136l-96-96c-51 41-94 91-129 147z m524 64c0-33-13-65-37-88-23-24-55-37-88-37-19 0-37 4-53 13l166 166c8-17 12-35 12-54z m-250 0c0 33 13 65 37 88 23 24 55 37 88 37 19 0 37-4 54-12l-166-166c-9 16-13 34-13 53z m524-64c-56-90-182-242-399-242-69 0-137 16-199 49l84 83c40-26 88-38 136-33 48 5 93 26 126 60 34 34 56 78 60 126 5 48-7 96-33 136l96 96c51-41 95-91 129-147 12-19 18-41 18-64 0-23-6-45-18-64z" horiz-adv-x="1000" />

<glyph glyph-name="check-circle" unicode="&#xe826;" d="M759 471c16-16 16-43-1-59l-184-181c-33-32-75-48-117-48-41 0-83 16-115 47l-79 78c-17 16-17 42-1 59 16 16 43 16 59 0l79-77c32-31 83-31 116 1l184 181c16 16 43 15 59-1z m241-121c0-276-224-500-500-500-276 0-500 224-500 500 0 276 224 500 500 500 276 0 500-224 500-500z m-83 0c0 230-187 417-417 417-230 0-417-187-417-417 0-230 187-417 417-417 230 0 417 187 417 417z" horiz-adv-x="1000" />

<glyph glyph-name="time-quarter-to" unicode="&#xe827;" d="M1000 350c0-133-53-260-146-354-94-93-221-146-354-146-133 0-260 53-354 146-93 94-146 221-146 354 0 11 4 22 12 30 8 7 19 12 30 12 11 0 21-5 29-12 8-8 12-19 12-30 0-82 25-163 71-231 45-69 110-122 187-154 76-32 160-40 240-24 81 16 155 56 214 114 58 59 98 133 114 214 16 81 8 164-24 241-32 76-85 141-153 186-69 46-150 71-232 71-11 0-22 4-29 12-8 8-13 18-13 29 0 11 5 22 13 30 7 8 18 12 29 12 133 0 260-53 353-147 94-93 147-220 147-353z m-572 42h-95c-11 0-21-5-29-12-8-8-12-19-12-30 0-11 4-22 12-29 8-8 18-13 29-13h95c7-11 15-20 26-27 11-7 23-12 35-14 13-1 26 0 38 4 12 4 23 11 32 20 9 9 16 20 20 32 4 12 5 25 4 38-2 12-7 24-14 35-7 11-16 19-27 26v136c0 11-5 22-12 30-8 8-19 12-30 12-11 0-22-4-29-12-8-8-13-19-13-30v-136c-12-7-22-18-30-30z m-352 92c8 0 16 2 23 7 7 5 13 11 16 19 3 7 4 16 2 24-2 8-6 15-11 21-6 6-14 10-22 12-8 1-16 0-24-3-7-3-14-8-18-15-5-7-7-15-7-23 0-11 4-22 12-30 8-8 18-12 29-12z m100 149c8 0 16 3 23 7 7 5 12 11 15 19 4 7 4 16 3 24-2 8-6 15-12 21-5 6-13 10-21 12-8 1-16 0-24-3-8-3-14-8-19-15-4-7-7-15-7-23 0-11 5-22 12-30 8-8 19-12 30-12z m148 99c8 0 16 2 23 7 7 4 13 11 16 18 3 8 4 16 2 24-2 9-6 16-11 22-6 6-14 10-22 11-8 2-16 1-24-2-7-3-14-9-18-16-5-6-7-14-7-23 0-11 4-21 12-29 8-8 18-12 29-12z" horiz-adv-x="1000" />

<glyph glyph-name="user" unicode="&#xe828;" d="M500 350c49 0 98 15 139 42 41 28 73 67 92 112 19 46 24 96 14 145-9 48-33 93-68 128-35 35-80 59-128 68-49 10-99 5-145-14-45-19-84-51-112-92-27-41-42-90-42-139 0-66 26-130 73-177 47-47 111-73 177-73z m0 417c33 0 65-10 93-28 27-19 48-45 61-75 13-31 16-64 10-96-7-33-23-62-46-86-23-23-53-39-85-45-33-7-66-4-97 9-30 13-56 34-75 61-18 28-28 60-28 93 0 44 18 87 49 118 31 31 74 49 118 49z m0-500c-99 0-195-40-265-110-70-71-110-166-110-265 0-11 4-22 12-30 8-8 19-12 30-12 11 0 21 4 29 12 8 8 12 19 12 30 0 77 31 151 86 206 55 55 129 85 206 85 77 0 152-30 206-85 55-55 86-129 86-206 0-11 4-22 12-30 8-8 18-12 29-12 11 0 22 4 30 12 8 8 12 19 12 30 0 99-40 194-110 265-70 70-166 110-265 110z" horiz-adv-x="1000" />

<glyph glyph-name="users-alt" unicode="&#xe829;" d="M500 183c-33 0-65 10-93 28-27 19-48 45-61 75-13 31-16 64-9 97 6 32 22 62 45 85 24 23 53 39 86 46 32 6 65 3 96-10 30-13 56-34 75-61 18-28 28-60 28-93 0-44-18-87-49-118-31-31-74-49-118-49z m0 250c-16 0-33-5-46-14-14-9-25-22-31-37-6-15-8-32-5-48 4-16 11-31 23-43 12-12 27-19 43-23 16-3 33-1 48 5 15 6 28 17 37 31 9 13 14 30 14 46 0 22-8 43-24 59-16 16-37 24-59 24z m250-541c0 66-26 130-73 176-47 47-111 74-177 74-66 0-130-27-177-74-47-46-73-110-73-176 0-11 4-22 12-30 8-8 19-12 30-12 11 0 21 4 29 12 8 8 12 19 12 30 0 44 18 86 49 118 31 31 74 48 118 48 44 0 87-17 118-48 31-32 49-74 49-118 0-11 4-22 12-30 8-8 18-12 29-12 11 0 22 4 30 12 8 8 12 19 12 30z m0 625c-33 0-65 9-93 28-27 18-48 44-61 75-13 30-16 64-9 96 6 32 22 62 45 85 24 24 53 39 86 46 32 6 65 3 96-10 30-12 56-34 75-61 18-27 28-60 28-93 0-44-18-86-49-117-31-32-74-49-118-49z m0 250c-16 0-33-5-46-14-14-9-25-22-31-38-6-15-8-32-5-48 4-16 11-31 23-43 12-11 27-19 43-22 16-4 33-2 48 4 15 7 28 17 37 31 9 14 14 30 14 46 0 22-8 44-24 59-16 16-37 25-59 25z m250-542c0 66-26 130-73 177-47 47-111 73-177 73-11 0-22-4-29-12-8-8-13-19-13-30 0-11 5-21 13-29 7-8 18-12 29-12 44 0 87-18 118-49 31-31 49-74 49-118 0-11 4-22 12-29 8-8 18-13 29-13 11 0 22 5 30 13 8 7 12 18 12 29z m-750 292c-33 0-65 9-93 28-27 18-48 44-61 75-13 30-16 64-9 96 6 32 22 62 45 85 24 24 53 39 86 46 32 6 65 3 96-10 30-12 56-34 75-61 18-27 28-60 28-93 0-44-18-86-49-117-31-32-74-49-118-49z m0 250c-16 0-33-5-46-14-14-9-25-22-31-38-6-15-8-32-5-48 4-16 11-31 23-43 12-11 27-19 43-22 16-4 33-2 48 4 15 7 28 17 37 31 9 14 14 30 14 46 0 22-8 44-24 59-16 16-37 25-59 25z m-167-542c0 44 18 87 49 118 31 31 74 49 118 49 11 0 22 4 30 12 7 8 12 18 12 29 0 11-5 22-12 30-8 8-19 12-30 12-66 0-130-26-177-73-47-47-73-111-73-177 0-11 4-22 12-29 8-8 19-13 30-13 11 0 21 5 29 13 8 7 12 18 12 29z" horiz-adv-x="1000" />

<glyph glyph-name="users" unicode="&#xe82a;" d="M313 308c-38 0-74 11-105 32-30 21-54 50-69 84-14 34-18 72-10 108 7 37 25 70 51 96 26 27 60 45 96 52 36 7 74 3 108-11 35-14 64-38 84-69 21-31 32-67 32-104 0-50-20-97-55-133-35-35-83-55-132-55z m0 292c-21 0-41-6-58-18-17-11-31-27-39-46-8-19-10-40-6-60 4-21 14-39 29-54 14-14 33-24 53-28 20-4 41-2 60 6 19 8 36 21 47 38 12 17 18 37 18 58 0 28-11 54-31 74-19 19-46 30-73 30z m312-708v20c0 83-33 163-91 222-59 58-139 91-221 91-83 0-163-33-221-91-59-59-92-139-92-222l0-20c0-11 4-22 12-30 8-8 19-12 30-12 11 0 21 4 29 12 8 8 12 19 12 30v20c0 61 25 120 68 163 42 43 101 67 162 67 60 0 119-24 162-67 43-43 67-102 67-163v-20c0-11 4-22 12-30 8-8 18-12 29-12 11 0 22 4 30 12 8 8 12 19 12 30z m375 208c0 56-16 111-47 159-31 47-74 84-126 107-51 23-108 31-164 22-55-8-107-33-149-71-4-3-8-8-10-13-2-5-4-10-4-15 0-6 0-11 2-17 2-5 5-10 8-14 4-4 9-7 13-9 5-3 11-4 16-4 6-1 11 0 17 2 5 2 9 5 14 8 29 27 67 45 106 51 40 6 81 1 117-16 37-16 68-43 90-77 22-33 34-73 34-113 0-11 4-22 12-29 8-8 18-13 29-13 11 0 22 5 30 13 8 7 12 18 12 29z m-271 375c-37 0-73 11-104 32-31 20-55 50-69 84-14 34-18 72-11 108 8 37 25 70 52 96 26 26 59 44 96 51 36 8 74 4 108-10 34-14 64-38 84-69 21-31 32-67 32-104 0-50-20-98-55-133-35-35-83-55-133-55z m0 292c-20 0-41-6-58-18-17-11-30-28-38-47-8-19-10-40-6-60 4-20 14-39 29-53 14-15 33-25 53-29 20-4 41-2 60 6 19 8 35 22 47 39 11 17 17 37 17 58 0 27-11 54-30 73-20 20-46 31-74 31z" horiz-adv-x="1000" />

<glyph glyph-name="gif" unicode="&#xe82b;" d="M792 850h-584c-55 0-108-22-147-61-39-39-61-92-61-147l0-584c0-55 22-108 61-147 39-39 92-61 147-61h473c27 0 54 5 80 16 25 10 48 26 67 45l111 111c19 19 35 42 45 67 11 26 16 53 16 80v473c0 55-22 108-61 147-39 39-92 61-147 61z m-709-792v584c0 33 14 65 37 88 23 24 55 37 88 37h584c33 0 65-13 88-37 24-23 37-55 37-88v-417h-167c-33 0-65-13-88-37-24-23-37-55-37-88v-167h-417c-33 0-65 13-88 37-23 23-37 55-37 88z m686-88c-16-17-38-28-61-33v163c0 11 5 22 13 30 7 7 18 12 29 12h163c-5-23-16-45-33-61l-111-111z m-436 515v-13c0-22-9-43-24-59-16-15-37-24-59-24-11 0-22 2-32 6-10 4-19 10-27 18-7 8-14 17-18 27-4 10-6 21-6 32v87c0 11 2 22 6 32 4 10 11 19 18 27 8 7 17 13 27 18 10 4 21 6 32 6 15 0 30-5 43-13 13-7 24-19 31-32 1-3 2-7 3-10 0-3 0-7-1-10-1-3-3-6-5-9-2-3-5-5-8-6-3-2-7-3-10-3-3-1-7 0-10 1-3 1-6 2-9 5-3 2-5 5-6 8-3 5-7 9-12 12-5 3-10 4-16 5-4 0-8-1-12-3-4-1-7-4-10-6-3-3-5-7-7-11-1-3-2-8-2-12v-86c0-4 1-8 2-12 2-4 4-7 7-10 3-3 6-5 10-7 4-1 8-2 12-2 8 0 16 3 22 9 6 6 9 13 9 22v3h-10c-6 0-11 2-15 6-4 4-6 9-6 15 0 5 2 11 6 15 4 4 9 6 15 6h31c8 0 16-4 22-9 6-6 9-14 9-23z m250 5v-75c0-7-2-13-7-18-5-5-12-8-19-8-7 0-13 3-18 8-5 5-8 11-8 18v201c0 7 3 13 8 18 5 5 11 8 18 8h84c7 0 14-3 19-8 5-5 7-11 7-18 0-7-2-14-7-19-5-5-12-7-19-7h-58v-48h52c7 0 14-3 18-7 5-5 8-12 8-19 0-7-3-13-8-18-4-5-11-8-18-8h-52z m-125 126v-201c0-7-2-14-7-19-5-4-12-7-19-7-7 0-13 3-18 7-5 5-8 12-8 19v201c0 7 3 13 8 18 5 5 11 8 18 8 7 0 14-3 19-8 5-5 7-11 7-18z" horiz-adv-x="1000" />

<glyph glyph-name="menu-dots-vertical" unicode="&#xe82c;" d="M500 683c46 0 83 38 83 84 0 46-37 83-83 83-46 0-83-37-83-83 0-46 37-84 83-84z m0-416c46 0 83 37 83 83 0 46-37 83-83 83-46 0-83-37-83-83 0-46 37-83 83-83z m0-417c46 0 83 37 83 83 0 46-37 84-83 84-46 0-83-38-83-84 0-46 37-83 83-83z" horiz-adv-x="1000" />

<glyph glyph-name="thumbs-up" unicode="&#xe82d;" d="M949 528c-20 23-44 41-71 53-27 13-56 19-86 19h-166l14 85c4 30-2 61-17 87-16 26-41 45-70 54-29 10-60 8-88-4-28-12-50-33-64-60l-68-138v-649h430c50 0 98 18 136 51 38 33 63 79 70 128l29 209c4 29 2 59-6 88-9 28-23 55-43 77z m-949-136v-209c0-55 22-108 61-147 39-39 92-61 147-61h42v625h-42c-55 0-108-22-147-61-39-39-61-92-61-147z" horiz-adv-x="1000" />

<glyph glyph-name="clip" unicode="&#xe82e;" d="M956 450c-8 8-18 12-29 12-11 0-22-4-30-12l-453-456c-20-19-43-35-68-45-25-10-52-16-80-16-55 0-108 22-147 61-39 39-61 92-61 148 0 55 22 108 61 147l439 441c24 23 56 36 89 36 33 0 64-13 87-36 24-24 37-55 37-88 0-33-13-65-36-89l-439-441c-8-7-19-12-30-12-11 0-21 5-29 12-8 8-12 19-12 30 0 11 4 21 12 29l391 393c8 8 12 19 12 29 0 11-5 22-12 30-8 7-19 12-30 12-10 0-21-4-29-12l-391-393c-12-12-21-25-27-41-7-15-10-31-10-47 0-17 3-33 10-48 6-15 15-29 27-41 24-23 55-35 88-35 33 0 65 12 89 35l439 442c38 39 60 92 59 146 0 55-22 108-61 146-38 39-91 61-146 61-55 1-107-21-146-59l-440-441c-55-55-85-129-85-206 0-78 30-152 85-207 55-54 129-85 206-85 78 0 152 31 206 85l454 456c4 4 7 8 9 14 2 5 4 10 4 16 0 5-2 10-4 16-2 5-5 9-9 13z" horiz-adv-x="1000" />

<glyph glyph-name="thumbtack" unicode="&#xe82f;" d="M42-150c11 0 21 4 29 12l276 276 52-54c39-41 93-65 150-67 19 0 38 3 56 9 28 10 52 27 70 50 18 24 29 51 31 81 5 42 2 84-9 126l-9 43c-1 7-1 14 1 21 2 7 5 13 10 18l66 67c3 2 7 4 10 4 2 0 3 0 4-1 1 0 2-1 3-2 21-22 49-36 80-40 30-3 60 5 86 22 14 11 27 24 36 40 9 16 14 33 16 51 1 19-1 37-8 54-6 17-16 32-29 45l-205 205c-21 22-49 35-79 38-30 3-60-4-85-21-14-11-27-24-36-40-9-16-14-33-16-51-1-19 1-37 7-54 7-17 17-32 29-45l4-3c2-3 3-6 3-9 0-4-1-7-3-9l-67-67c-5-5-11-9-18-11-7-2-15-2-22 0l-34 9c-42 11-85 14-128 9-31-3-60-15-84-34-24-19-42-44-52-73-11-30-13-63-6-94 7-31 22-59 45-81l73-76-277-277c-6-6-10-13-11-21-2-8-1-17 2-24 3-8 9-14 16-19 6-5 14-7 23-7z m214 571c4 14 13 27 25 36 11 9 26 15 40 17 10 1 20 1 29 1 24 0 47-3 70-9l35-9c21-5 43-5 64 1 20 6 40 17 55 32l67 67c18 18 28 42 28 68 0 25-10 50-28 68l-4 3c-4 4-7 9-9 15-2 6-3 12-3 18 1 6 3 12 6 17 3 5 7 10 12 13 9 6 19 8 30 6 10-1 19-6 26-14l206-205c4-4 7-9 9-15 2-6 3-12 3-18-1-6-3-12-6-17-3-5-7-10-12-13-9-6-20-8-30-6-10 1-20 6-27 14-9 9-19 16-30 21-11 4-24 7-36 7-26 0-51-10-69-29l-66-66c-15-15-26-33-32-54-6-20-7-42-2-62l9-44c9-33 11-66 8-99-1-13-6-26-14-37-9-11-20-19-33-23-21-6-43-5-64 1-21 7-40 20-54 36l-184 190c-11 11-19 26-23 42-3 15-2 32 4 47z" horiz-adv-x="1000" />

<glyph glyph-name="square-star" unicode="&#xe830;" d="M376 127c-8 0-16 3-23 8-13 9-18 26-13 42l35 115-90 73c-12 11-17 28-12 43 6 15 20 25 36 25h115l40 108c6 15 20 25 36 25s30-10 36-25l40-108h115c16 0 30-10 36-25s1-33-12-43l-90-74 38-113c5-16 0-33-13-43-13-10-31-10-45-1l-105 68-103-69c-6-4-14-6-21-6z m416-277h-584c-115 0-208 93-208 208v584c0 115 93 208 208 208h584c115 0 208-93 208-208v-584c0-115-93-208-208-208z m-584 917c-68 0-125-57-125-125v-584c0-68 57-125 125-125h584c68 0 125 57 125 125v584c0 68-57 125-125 125h-584z" horiz-adv-x="1000" />
</font>
</defs>
</svg>
